Live in Gdansk 2006

fat old sun

Moderátor: bery

fernetti
piper
Příspěvky: 2992
Registrován: 19.08.2005 11:16:01
Kontaktovat uživatele:

Příspěvekod fernetti » 06.01.2009 12:26:34

Richard píše:Nějaké počteníčko z novin:

http://www.edisk.cz/stahnout-soubor/377 ... .25KB.html


díky :palec:
there´s no dark side of the moon, really. matter of fact it´s all pink.

Uživatelský avatar
Dave
piper
Příspěvky: 458
Registrován: 25.08.2005 13:49:11
Bydliště: Praha
Kontaktovat uživatele:

Příspěvekod Dave » 30.03.2009 21:23:23

http://www.cd-net.cz/shop/index.php?mai ... s_id=10593

David Gilmour - Live In Gdansk - 2CD+DVD
349.00Kč
Ušetříte: 50%
<a><img></a>

fernetti
piper
Příspěvky: 2992
Registrován: 19.08.2005 11:16:01
Kontaktovat uživatele:

Příspěvekod fernetti » 09.04.2009 6:58:02

Dave píše:http://www.cd-net.cz/shop/index.php?main_page=product_info&products_id=10593

David Gilmour - Live In Gdansk - 2CD+DVD
349.00Kč
Ušetříte: 50%


tak za tuhle cenu by to určitě bral i proti :mrgreen:
there´s no dark side of the moon, really. matter of fact it´s all pink.

Uživatelský avatar
proti
piper
Příspěvky: 1776
Registrován: 22.12.2006 11:59:49
Bydliště: Tady někde
Kontaktovat uživatele:

Příspěvekod proti » 14.04.2009 12:50:28

Cena je OK, jen tech CDs a DVDs je tam nejak malo... :mrgreen:
Vnímání subjektu je mylný názor na objektivní realitu.
"There's enough religion in the world to make men hate each other,
but not enough to make them love."(Louis Cyphre)


Člověk se rozhodne svobodně, aby holdoval své nesvobodné závislosti.

Uživatelský avatar
Harold
piper
Příspěvky: 289
Registrován: 19.04.2006 13:47:06
Bydliště: Brno

Příspěvekod Harold » 18.08.2009 16:36:28

ČT2, sobota 29. 8. 2009, 13:25 - David Gilmour - Live in Gdańsk (opakování ČT2, neděle 30. 8. 2009, 2:35) :D

Uživatelský avatar
bery
piper
Příspěvky: 1898
Registrován: 28.04.2006 14:36:43
Bydliště: Zlín, Velké Karlovice
Kontaktovat uživatele:

Příspěvekod bery » 19.08.2009 9:55:03

Diky za tip, neco prijemneho k sobotnimu obedu.
...and after all we're only ordinary men Obrázek

Uživatelský avatar
bery
piper
Příspěvky: 1898
Registrován: 28.04.2006 14:36:43
Bydliště: Zlín, Velké Karlovice
Kontaktovat uživatele:

Příspěvekod bery » 31.08.2009 15:12:44

Harold píše:ČT2, sobota 29. 8. 2009, 13:25 - David Gilmour - Live in Gdańsk (opakování ČT2, neděle 30. 8. 2009, 2:35) :D


Ze sberatelskych duvodu jsem si to nechal nahrat (nemohl jsem se divat), pro zajimavost playlist toho sestrihu:

01 Castellorizon
02 On An Island
03 This Heaven
04 A Pocketful of Stones
05 Where We Start
06 High Hopes
07 A Great Day For Freedom
08 Comfortably Numb

celkova doba cca: 54 min
...and after all we're only ordinary men Obrázek

Uživatelský avatar
Dennis.16
raver
Příspěvky: 82
Registrován: 20.01.2008 10:49:28
Bydliště: Kladno

Příspěvekod Dennis.16 » 31.08.2009 21:34:06

bery píše:
Harold píše:ČT2, sobota 29. 8. 2009, 13:25 - David Gilmour - Live in Gdańsk (opakování ČT2, neděle 30. 8. 2009, 2:35) :D


Ze sberatelskych duvodu jsem si to nechal nahrat (nemohl jsem se divat), pro zajimavost playlist toho sestrihu:

01 Castellorizon
02 On An Island
03 This Heaven
04 A Pocketful of Stones
05 Where We Start
06 High Hopes
07 A Great Day For Freedom
08 Comfortably Numb

celkova doba cca: 54 min


No ale, že to hodně zkrátili. Aspoň Echoes mohli nechat, i když je zrovna nejdelší 8)

Uživatelský avatar
Harman
piper
Příspěvky: 309
Registrován: 24.11.2005 20:23:04
Bydliště: Brno

Příspěvekod Harman » 01.09.2009 11:37:11

Když jste tak u toho, tak na Demonoidu se objevil od POTW sdílený Theatrical cut HDTV broadcast

Kód: Vybrat vše

David Gilmour - Live in Gdansk HDTV Broadcast

Lineage: Motorola DCT3416 STB > Firewire > CapDVHS > Mpeg2 TS file > TSSniper > Edited Mpeg2 TS File > Mediacoder > H264 MKV file.


Video
ID                               : 1
Format                           : AVC
Format/Info                      : Advanced Video Codec
Format profile                   : Main@L4.0
Format settings, CABAC           : Yes
Format settings, ReFrames        : 2 frames
Muxing mode                      : Container profile=Unknown@4.0
Codec ID                         : V_MPEG4/ISO/AVC
Duration                         : 1h 43mn
Bit rate                         : 9 145 Kbps
Width                            : 1 920 pixels
Height                           : 1 080 pixels
Display aspect ratio             : 16:9
Frame rate                       : 29.970 fps
Resolution                       : 24 bits
Colorimetry                      : 4:2:0
Scan type                        : Progressive
Bits/(Pixel*Frame)               : 0.147
Stream size                      : 6.62 GiB (94%)
Writing library                  : x264 core 67 r1173 f6d3166
Encoding settings                : cabac=1 / ref=1 / deblock=1:0:0 / analyse=0x1:0x111 / me=hex / subme=7 / psy_rd=1.0:0.0 / mixed_ref=0 / me_range=16 / chroma_me=1 / trellis=1 / 8x8dct=0 / cqm=0 / deadzone=21,11 / chroma_qp_offset=-2 / threads=12 / nr=0 / decimate=1 / mbaff=0 / bframes=3 / b_pyramid=0 / b_adapt=1 / b_bias=0 / direct=3 / wpredb=1 / keyint=250 / keyint_min=25 / scenecut=40 / rc=crf / crf=25.0 / qcomp=0.60 / qpmin=10 / qpmax=51 / qpstep=4 / ip_ratio=1.40 / pb_ratio=1.30 / aq=1:1.0

Audio
ID                               : 2
Format                           : AC-3
Format/Info                      : Audio Coding 3
Codec ID                         : A_AC3
Duration                         : 1h 43mn
Bit rate mode                    : Constant
Bit rate                         : 384 Kbps
Channel(s)                       : 6 channels
Channel positions                : Front: L C R, Surround: L R, LFE
Sampling rate                    : 48.0 KHz
Stream size                      : 285 MiB (4%)
Title                            : 3/2+1
Language                         : English

Menu
00:00:00.000                     : en:Chapter 00 Speak To Me/Breathe
00:03:54.000                     : en:Chapter 01 Time/Breathe Reprise
00:10:37.000                     : en:Chapter 02 Castellorizon
00:13:53.000                     : en:Chapter 03 On An Island
00:21:11.000                     : en:Chapter 04 The Blue
00:27:30.000                     : en:Chapter 05 This Heaven
00:31:56.000                     : en:Chapter 06 Smile
00:36:34.000                     : en:Chapter 07 Take A Breath
00:43:12.000                     : en:Chapter 08 A Pocketful Of Stones
00:48:40.000                     : en:Chapter 09 Where We Start
00:56:20.000                     : en:Chapter 10 SOYCD
01:08:15.000                     : en:Chapter 11 Astronomy Domine
01:12:54.000                     : en:Chapter 12 High Hopes
01:22:30.000                     : en:Chapter 13 Wish You Were Here
01:27:40.000                     : en:Chapter 14 Great Day For Freedom
01:33:57.000                     : en:Chapter 15 Comfortably Numb

Live In Peace

Uživatelský avatar
Harold
piper
Příspěvky: 289
Registrován: 19.04.2006 13:47:06
Bydliště: Brno

Příspěvekod Harold » 01.09.2009 13:41:36

Dennis.16 píše:No ale, že to hodně zkrátili. Aspoň Echoes mohli nechat, i když je zrovna nejdelší 8)


Jo, bylo to pěkné (a večer pak ještě naživo Jethro Tull na zámku ve Slavkově :D ). Pro nás, co Gdaňsk ještě neviděli (krom Missing videos DVD), to byl zážitek.

U Echoes by se běžní TV diváci asi unudili. :twisted:


Zpět na „David Gilmour“

Kdo je online

Uživatelé prohlížející si toto fórum: Žádní registrovaní uživatelé a 1 host